<?xml version="1.0" standalone="no"?>
<!DOCTYPE svg PUBLIC "-//W3C//DTD SVG 1.1//EN" "http://www.w3.org/Graphics/SVG/1.1/DTD/svg11.dtd">
<svg xmlns="http://www.w3.org/2000/svg">
<defs >
<font id="FiraMono" horiz-adv-x="600" ><font-face
    font-family="Fira Mono"
    units-per-em="1000"
    panose-1="2 11 8 9 5 0 0 2 0 4"
    ascent="935"
    descent="-265"
    alphabetic="0" />
<glyph unicode=" " glyph-name="space" />
<glyph unicode="!" glyph-name="exclam" d="M364 255H237L216 693H384L364 255ZM338 164T364 138T390 74Q390 36 364 10T300 -17Q263 -17 237 9T210 74Q210 111 236 137T300 164Q338 164 364 138Z" />
<glyph unicode="&quot;" glyph-name="quotedbl" d="M129 742H279L260 462H148L129 742ZM320 742H471L452 462H339L320 742Z" />
<glyph unicode="#" glyph-name="numbersign" d="M466 249H529V145H452L433 0H303L322 145H226L207 0H77L95 145H35V249H109L135 446H72V551H149L167 693H298L279 551H375L394 693H524L505 551H566V446H491L466 249ZM335 249L361 446H265L239 249H335Z" />
<glyph unicode="$" glyph-name="dollar" d="M349 708Q463 698 546 629L469 548Q416 592 349 597V422Q457 387 507 339T558 204Q558 118 503 59T349 -13V-162H268V-16Q198 -11 140 15T42 79L118 167Q153 136 189 120T268 100V308Q161 344 114 392T67 511Q67 593
121 645T268 707V856H349V708ZM239 591T224 573T208 530Q208 503 219 487T268 453V596Q239 591 224 573ZM349 103Q411 117 411 185Q411 216 398 237T349 276V103Z" />
<glyph unicode="%" glyph-name="percent" d="M509 681L168 -29L85 6L425 716L509 681ZM213 711T251 668T289 554Q289 482 251 440T147 397Q79 397 41 439T3 554Q3 624 41 667T147 711Q213 711 251 668ZM123 633T115 614T107 554Q107 515 115 495T147 475Q170 475
178 494T186 554Q186 597 178 615T147 633Q123 633 115 614ZM520 307T558 265T596 150Q596 78 558 36T454 -6Q386 -6 348 36T310 150Q310 220 348 263T454 307Q520 307 558 265ZM430 230T422 211T414 150Q414 112 422 92T454 72Q477 72 485 91T493 150Q493 193
485 211T454 230Q430 230 422 211Z" />
<glyph unicode="&amp;" glyph-name="ampersand" d="M341 710T387 692T473 631L388 558Q365 582 345 592T297 602Q262 602 243 581T224 523Q224 484 249 459T316 433H578V332H512V70Q476 32 420 8T281 -17Q204 -17 149 10T66 87T37 198Q37 278 76 324T190 389V393Q72
424 72 543Q72 590 98 628T172 688T279 710Q341 710 387 692ZM307 332Q251 332 222 297T192 210Q192 159 217 129T290 98Q314 98 334 105T366 126V332H307Z" />
<glyph unicode="&apos;" glyph-name="quotesingle" d="M225 742H374L356 462H244L225 742Z" />
<glyph unicode="(" glyph-name="parenleft" d="M261 266T278 200T336 70T450 -75L359 -158Q232 -49 167 72T101 350Q101 506 166 627T359 858L450 775Q348 663 305 568T261 350Q261 266 278 200Z" />
<glyph unicode=")" glyph-name="parenright" d="M339 472T296 567T150 775L241 858Q368 749 433 628T499 350Q499 194 434 73T241 -158L150 -75Q223 5 263 69T321 200T339 350Q339 472 296 567Z" />
<glyph unicode="*" glyph-name="asterisk" d="M346 380L482 444L523 320L374 292L480 183L371 104L299 238L230 103L121 182L225 293L78 320L117 444L254 381L232 531H367L346 380Z" />
<glyph unicode="+" glyph-name="plus" d="M365 373H517V252H365V96H234V252H83V373H234V529H365V373Z" />
<glyph unicode="," glyph-name="comma" d="M347 206T378 175T409 98Q409 70 400 43T366 -40L294 -203H188L239 9Q217 23 205 46T192 99Q192 144 223 175T300 206Q347 206 378 175Z" />
<glyph unicode="-" glyph-name="hyphen" d="M108 374H492V252H108V374Z" />
<glyph unicode="." glyph-name="period" d="M189 140T221 173T300 206Q346 206 378 173T411 95Q411 49 379 16T300 -17Q254 -17 222 16T189 95Q189 140 221 173Z" />
<glyph unicode="/" glyph-name="slash" d="M29 -55L449 817L571 760L152 -112L29 -55Z" />
<glyph unicode="0" glyph-name="zero" d="M423 711T486 616T550 348Q550 174 487 79T300 -17Q177 -17 114 78T50 348Q50 521 113 616T300 711Q423 711 486 616ZM250 596T227 539T203 348Q203 211 226 154T300 97Q351 97 373 154T396 348Q396 483 373 539T300 596Q250
596 227 539ZM327 410T346 391T365 345Q365 317 346 298T299 279Q271 279 253 298T234 345Q234 372 252 391T299 410Q327 410 346 391Z" />
<glyph unicode="1" glyph-name="one" d="M551 120V0H101V120H268V538L125 448L58 557L282 693H422V120H551Z" />
<glyph unicode="2" glyph-name="two" d="M352 711T406 684T487 612T515 512Q515 455 489 402T404 284T235 121H531L514 0H54V112Q177 231 238 297T326 410T354 498Q354 541 330 565T261 589Q222 589 193 573T136 519L40 592Q81 649 138 680T276 711Q352 711 406 684Z" />
<glyph unicode="3" glyph-name="three" d="M344 711T397 687T479 623T508 533Q508 469 471 428T366 367Q530 345 530 195Q530 136 498 88T404 11T262 -17Q186 -17 124 10T18 87L107 170Q164 104 251 104Q304 104 336 131T368 206Q368 310 251 310H188L206 418H250Q298
418 326 441T355 509Q355 548 327 570T254 593Q179 593 116 533L35 617Q132 711 272 711Q344 711 397 687Z" />
<glyph unicode="4" glyph-name="four" d="M553 146H484V0H333L332 146H45V250L237 711L371 661L208 264H332L350 431H484V264H553V146Z" />
<glyph unicode="5" glyph-name="five" d="M497 580H244V430Q293 453 346 453Q400 453 444 426T515 347T541 228Q541 158 507 102T411 15T269 -17Q196 -17 138 10T39 87L130 170Q155 138 187 121T257 104Q312 104 345 137T378 225Q378 344 284 344Q241 344 200
321H93V693H515L497 580Z" />
<glyph unicode="6" glyph-name="six" d="M415 465T459 438T528 359T554 235Q554 165 524 108T438 17T308 -17Q178 -17 114 75T50 313Q50 430 86 520T191 660T351 711Q436 711 501 666L441 570Q401 598 353 598Q295 598 258 547T215 402Q245 433 283 449T360 465Q415
465 459 438ZM353 96T374 132T396 226Q396 295 377 325T319 356Q291 356 264 342T215 303Q216 196 237 146T310 96Q353 96 374 132Z" />
<glyph unicode="7" glyph-name="seven" d="M114 31L372 574H68V693H532V586L264 -16L114 31Z" />
<glyph unicode="8" glyph-name="eight" d="M530 479T505 444T423 377Q557 309 557 188Q557 133 527 86T439 11T297 -17Q216 -17 159 10T72 83T43 184Q43 242 76 286T170 357Q115 392 93 427T70 519Q70 577 100 620T182 687T301 711Q368 711 420 689T501 625T530
527Q530 479 505 444ZM220 483T244 459T321 415Q354 439 367 463T380 518Q380 557 360 580T301 603Q262 603 241 582T220 519Q220 483 244 459ZM399 223T386 244T345 281T267 315Q201 273 201 194Q201 149 226 123T301 96Q350 96 374 122T399 189Q399 223 386 244Z"
/>
<glyph unicode="9" glyph-name="nine" d="M420 711T485 636T551 434Q551 301 506 209T369 59T129 -30L96 81Q220 112 289 163T381 296Q349 268 315 254T240 239Q186 239 141 267T70 345T44 461Q44 535 77 591T167 679T296 711Q420 711 485 636ZM203 406T226 378T289
350Q340 350 388 390Q389 465 382 509T354 575T295 598Q251 598 227 566T203 466Q203 406 226 378Z" />
<glyph unicode=":" glyph-name="colon" d="M195 477T225 508T300 539Q344 539 374 508T404 434Q404 391 374 361T300 330Q256 330 226 360T195 434Q195 477 225 508ZM195 131T225 161T300 192Q344 192 374 162T404 89Q404 45 374 14T300 -17Q256 -17 226 14T195
89Q195 131 225 161Z" />
<glyph unicode=";" glyph-name="semicolon" d="M344 539T374 508T404 434Q404 391 374 361T300 330Q256 330 226 360T195 434Q195 477 225 508T300 539Q344 539 374 508ZM345 197T374 167T404 93Q404 67 395 39T363 -40L294 -198H191L240 7Q219 21 207 44T195
94Q195 138 225 167T300 197Q345 197 374 167Z" />
<glyph unicode="&lt;" glyph-name="less" d="M531 504L206 314L531 128L459 15L70 257V370L461 613L531 504Z" />
<glyph unicode="=" glyph-name="equal" d="M527 354H73V478H527V354ZM527 145H73V268H527V145Z" />
<glyph unicode="&gt;" glyph-name="greater" d="M531 371V257L141 15L70 123L394 314L70 499L140 613L531 371Z" />
<glyph unicode="?" glyph-name="question" d="M369 711T421 688T499 627T526 543Q526 502 512 473T476 426T421 384Q380 357 360 335T340 276V255H196V281Q196 328 211 360T247 411T300 453Q332 475 346 490T361 529Q361 556 339 571T281 586Q247 586 215 571T156
525L56 603Q148 711 296 711Q369 711 421 688ZM307 164T334 138T361 74Q361 37 335 10T270 -17Q233 -17 207 9T180 74Q180 111 206 137T270 164Q307 164 334 138Z" />
<glyph unicode="@" glyph-name="at" d="M456 711T527 604T599 296Q599 162 586 78T538 -50T441 -94Q387 -94 358 -56T321 44H317Q299 3 263 -23T177 -49Q93 -49 54 13T15 179Q15 306 68 377T228 448Q269 448 312 437T396 404V104Q396 50 405 27T436 4Q455 4 464
31T475 114T478 287Q478 398 461 468T401 576T279 613Q223 613 170 592T61 521L-2 595Q66 655 135 683T287 711Q456 711 527 604ZM198 349T184 333T163 281T157 179Q157 109 167 80T206 50Q235 50 247 70T263 121V340Q245 349 225 349Q198 349 184 333Z" />
<glyph unicode="A" glyph-name="A" d="M197 150L161 0H-11L201 693H400L612 0H436L400 150H197ZM373 268L298 575L223 268H373Z" />
<glyph unicode="B" glyph-name="B" d="M571 92T493 46T286 0H56V693H276Q395 693 468 652T541 516Q541 457 505 419T414 367Q480 356 525 318T571 203Q571 92 493 46ZM376 540T351 558T270 577H220V416H276Q328 416 352 435T376 499Q376 540 351 558ZM402 262T373
284T287 306H220V120H280Q337 120 369 139T402 210Q402 262 373 284Z" />
<glyph unicode="C" glyph-name="C" d="M430 711T482 692T580 635L500 538Q437 589 362 589Q291 589 248 529T204 348Q204 227 247 169T365 110Q411 110 444 126T515 172L589 77Q497 -17 356 -17Q261 -17 189 25T75 149T34 348Q34 461 76 543T192 668T358 711Q430
711 482 692Z" />
<glyph unicode="D" glyph-name="D" d="M574 0T239 0H52V693H227Q384 693 479 620T574 350Q574 0 239 0ZM405 479T365 526T251 574H216V119H251Q326 119 365 170T405 350Q405 479 365 526Z" />
<glyph unicode="E" glyph-name="E" d="M257 409H497V295H257V118H546V0H93V693H546L529 576H257V409Z" />
<glyph unicode="F" glyph-name="F" d="M273 393H515V275H273V0H108V693H563L547 576H273V393Z" />
<glyph unicode="G" glyph-name="G" d="M178 -17T101 76T23 348Q23 463 65 545T180 669T345 711Q416 711 468 689T565 625L479 536Q446 565 418 578T353 591Q278 591 235 532T192 347Q192 213 224 158T327 103Q374 103 413 124V283H326L310 397H568V53Q454 -17
326 -17Q178 -17 101 76Z" />
<glyph unicode="H" glyph-name="H" d="M384 292H216V0H52V693H216V427H384V693H548V0H384V292Z" />
<glyph unicode="I" glyph-name="I" d="M525 573H382V121H525V0H75V121H218V573H75V693H525V573Z" />
<glyph unicode="J" glyph-name="J" d="M527 249Q527 127 454 56T248 -15Q184 -15 136 1T39 50L101 151Q137 127 168 117T239 107Q294 107 328 142T363 248V573H151V693H527V249Z" />
<glyph unicode="K" glyph-name="K" d="M59 0V693H223V0H59ZM417 693H589L393 382L608 0H419L228 370L417 693Z" />
<glyph unicode="L" glyph-name="L" d="M93 693H257V130H557L541 0H93V693Z" />
<glyph unicode="M" glyph-name="M" d="M583 0H439L431 297Q430 319 430 357Q430 407 433 454T440 554L362 118H238L153 554Q164 439 164 347L163 294L158 0H17L56 693H225L302 245L375 693H544L583 0Z" />
<glyph unicode="N" glyph-name="N" d="M167 557Q177 481 184 411T191 261V0H52V693H257L433 138Q409 292 409 428V693H548V0H349L167 557Z" />
<glyph unicode="O" glyph-name="O" d="M577 178T506 81T300 -17Q165 -17 94 79T23 347Q23 516 94 613T300 711Q435 711 506 615T577 347Q577 178 506 81ZM409 475T384 533T300 591Q242 591 217 533T191 347Q191 219 216 161T300 103Q359 103 384 161T409 347Q409
475 384 533Z" />
<glyph unicode="P" glyph-name="P" d="M576 350T503 291T302 231H226V0H62V693H280Q424 693 500 637T576 467Q576 350 503 291ZM408 576T283 576H226V349H291Q347 349 377 378T408 467Q408 576 283 576Z" />
<glyph unicode="Q" glyph-name="Q" d="M574 114T429 40Q513 26 559 -10T634 -127L500 -173Q476 -116 451 -83T388 -32T290 -14Q162 -14 97 80T32 347Q32 517 101 614T303 711Q437 711 505 615T574 347Q574 114 429 40ZM404 435T395 487T364 565T303 590Q264 590
242 565T211 487T202 347Q202 217 224 160T303 103Q343 103 364 128T395 206T404 347Q404 435 395 487Z" />
<glyph unicode="R" glyph-name="R" d="M561 412T524 365T423 292L604 0H418L268 265H222V0H58V693H276Q419 693 490 641T561 482Q561 412 524 365ZM392 532T364 555T276 578H222V378H283Q337 378 364 403T392 482Q392 532 364 555Z" />
<glyph unicode="S" glyph-name="S" d="M568 138T534 88T437 11T286 -17Q114 -17 12 83L95 175Q174 105 282 105Q334 105 365 127T397 190Q397 228 371 249T272 293Q150 330 99 380T48 509Q48 571 82 617T176 687T309 711Q462 711 557 621L480 532Q445 561 405
575T321 590Q273 590 246 573T218 522Q218 500 230 485T272 457T359 426Q465 394 516 344T568 203Q568 138 534 88Z" />
<glyph unicode="T" glyph-name="T" d="M381 0H217V567H22V693H583L567 567H381V0Z" />
<glyph unicode="U" glyph-name="U" d="M558 232Q558 160 529 104T442 15T300 -17Q174 -17 108 50T42 232V693H207V293Q207 226 214 186T241 126T300 105Q338 105 358 125T386 186T393 293V693H558V232Z" />
<glyph unicode="V" glyph-name="V" d="M433 693H601L401 0H199L0 693H174L303 128L433 693Z" />
<glyph unicode="W" glyph-name="W" d="M522 0H352L301 496L245 0H72L-3 693H150L174 140L231 613H373L426 140L460 693H603L522 0Z" />
<glyph unicode="X" glyph-name="X" d="M196 693L300 471L407 693H580L396 375L597 0H420L298 264L178 0H4L200 368L19 693H196Z" />
<glyph unicode="Y" glyph-name="Y" d="M382 0H218V259L-8 693H172L303 395L435 693H608L382 260V0Z" />
<glyph unicode="Z" glyph-name="Z" d="M562 131L545 0H39V123L368 566H75V693H554V569L232 131H562Z" />
<glyph unicode="[" glyph-name="bracketleft" d="M156 823H464V705H305V-6H464V-123H156V823Z" />
<glyph unicode="\" glyph-name="backslash" d="M152 817L571 -55L448 -112L29 760L152 817Z" />
<glyph unicode="]" glyph-name="bracketright" d="M444 -123H136V-5H295V705H136V823H444V-123Z" />
<glyph unicode="^" glyph-name="asciicircum" d="M561 527H407L299 726L195 527H39L228 844H372L561 527Z" />
<glyph unicode="_" glyph-name="underscore" d="M50 -62H550V-186H50V-62Z" />
<glyph unicode="`" glyph-name="grave" d="M163 716L224 835L442 702L399 622L163 716Z" />
<glyph unicode="a" glyph-name="a" d="M517 124T525 110T552 89L519 -15Q471 -10 439 6T389 55Q359 20 313 2T215 -17Q133 -17 84 29T35 150Q35 236 103 283T294 331H365V350Q365 432 260 432Q233 432 193 425T114 404L78 509Q129 528 184 538T285 549Q517 549
517 361V153Q517 124 525 110ZM296 96T323 111T365 154V241H326Q198 241 198 161Q198 130 216 113T269 96Q296 96 323 111Z" />
<glyph unicode="b" glyph-name="b" d="M253 511T288 530T364 549Q463 549 511 475T560 267Q560 184 535 120T462 20T347 -17Q307 -17 273 0T216 48L210 0H70V742L228 759V477Q253 511 288 530ZM397 98T397 265Q397 358 376 395T314 432Q265 432 228 370V146Q259
98 306 98Q397 98 397 265Z" />
<glyph unicode="c" glyph-name="c" d="M382 108T410 119T470 153L540 53Q502 21 452 2T343 -17Q258 -17 197 18T102 116T69 262Q69 345 103 410T199 512T346 549Q405 549 452 533T540 482L472 387Q414 427 353 427Q234 427 234 262Q234 179 265 144T352 108Q382
108 410 119Z" />
<glyph unicode="d" glyph-name="d" d="M530 742V0H390L382 58Q358 24 321 4T235 -17Q139 -17 90 59T40 267Q40 349 66 413T140 513T252 549Q324 549 372 499V759L530 742ZM251 433T227 393T203 266Q203 174 224 137T285 99Q335 99 372 160V389Q355 411 337 422T294
433Q251 433 227 393Z" />
<glyph unicode="e" glyph-name="e" d="M222 98T335 98Q403 98 471 142L534 56Q495 22 441 3T322 -17Q233 -17 171 18T78 117T46 265Q46 345 76 409T165 511T305 549Q381 549 437 517T523 423T554 276Q554 243 551 219H207Q222 98 335 98ZM262 443T236 412T205
315H400Q398 443 305 443Q262 443 236 412Z" />
<glyph unicode="f" glyph-name="f" d="M510 759T590 725L546 622Q495 642 433 642Q386 642 366 625T345 569V498H518L500 388H345V0H188V388H76V498H188V574Q188 656 245 707T408 759Q510 759 590 725Z" />
<glyph unicode="g" glyph-name="g" d="M578 500Q526 479 425 479Q477 456 502 424T528 342Q528 291 500 251T421 187T303 164Q270 164 241 170Q233 166 229 158T224 140Q224 125 235 117T282 108H370Q430 108 476 88T547 33T572 -46Q572 -129 500 -175T288 -222Q189
-222 133 -202T54 -144T31 -51H171Q171 -76 180 -90T216 -111T292 -118Q362 -118 388 -102T415 -57Q415 -33 396 -19T338 -4H254Q172 -4 131 25T90 101Q90 131 105 157T149 202Q99 229 77 265T55 354Q55 413 85 457T169 524T292 548Q372 546 428 563T542 616L578
500ZM258 445T237 421T215 356Q215 313 237 289T296 265Q335 265 356 288T377 358Q377 445 296 445Q258 445 237 421Z" />
<glyph unicode="h" glyph-name="h" d="M228 478Q295 549 384 549Q454 549 492 508T530 390V0H372V346Q372 394 361 413T321 432Q297 432 275 416T228 367V0H70V742L228 758V478Z" />
<glyph unicode="i" glyph-name="i" d="M340 809T366 784T392 720Q392 681 366 656T299 631Q258 631 232 656T205 720Q205 758 231 783T299 809Q340 809 366 784ZM394 108H530V0H86V108H236V423H91V531H394V108Z" />
<glyph unicode="j" glyph-name="j" d="M410 809T436 784T463 720Q463 682 437 657T370 631Q328 631 302 656T276 720Q276 758 302 783T370 809Q410 809 436 784ZM472 154Q472 41 430 -33T306 -152T94 -222L70 -101Q155 -82 207 -54T287 21T314 144V423H124V531H472V154Z" />
<glyph unicode="k" glyph-name="k" d="M228 0H70V742L228 759V0ZM399 296L588 0H408L234 291L409 531H574L399 296Z" />
<glyph unicode="l" glyph-name="l" d="M347 167Q347 108 415 108Q452 108 491 124L528 18Q464 -17 375 -17Q282 -17 236 36T189 187V634H33V742H347V167Z" />
<glyph unicode="m" glyph-name="m" d="M520 549T546 512T573 393V0H438V375Q438 404 433 415T412 426Q384 426 357 391V0H245V375Q245 404 240 415T219 426Q191 426 164 391V0H27V531H142L153 480Q179 516 204 532T264 549Q295 549 316 534T346 486Q400 549 463
549Q520 549 546 512Z" />
<glyph unicode="n" glyph-name="n" d="M70 531H208L219 470Q255 510 294 529T384 549Q453 549 491 507T530 390V0H372V344Q372 394 361 413T321 432Q297 432 275 417T228 371V0H70V531Z" />
<glyph unicode="o" glyph-name="o" d="M421 549T489 473T558 267Q558 133 490 58T300 -17Q178 -17 110 57T42 266Q42 351 72 414T161 513T300 549Q421 549 489 473ZM251 432T228 393T205 266Q205 178 228 139T300 99Q349 99 372 139T395 267Q395 353 372 392T300
432Q251 432 228 393Z" />
<glyph unicode="p" glyph-name="p" d="M464 549T511 476T558 267Q558 185 534 121T463 20T354 -17Q277 -17 228 38V-205L70 -222V531H210L217 472Q248 511 286 530T364 549Q464 549 511 476ZM265 432T228 370V146Q245 122 263 111T306 99Q350 99 372 138T395 265Q395
359 375 395T315 432Q265 432 228 370Z" />
<glyph unicode="q" glyph-name="q" d="M294 549T327 534T385 488L392 531H530V-222L372 -205V45Q320 -17 236 -17Q137 -17 90 58T42 267Q42 349 67 413T140 513T255 549Q294 549 327 534ZM251 433T228 393T205 266Q205 173 225 137T286 100Q337 100 372 160V389Q356
411 338 422T296 433Q251 433 228 393Z" />
<glyph unicode="r" glyph-name="r" d="M523 547T563 531L534 309H434V407Q390 399 356 359T303 258V106H408V0H75V106H145V426H75V531H266L294 412Q323 480 367 513T475 547Q523 547 563 531Z" />
<glyph unicode="s" glyph-name="s" d="M324 96T347 108T371 146Q371 164 362 175T326 196T245 222Q165 243 123 280T81 384Q81 457 141 503T311 549Q437 549 526 484L463 391Q390 436 316 436Q277 436 259 426T240 395Q240 381 249 372T285 352T365 327Q422 311
458 292T515 241T535 159Q535 103 501 63T410 3T284 -17Q210 -17 150 4T48 63L127 152Q199 96 283 96Q324 96 347 108Z" />
<glyph unicode="t" glyph-name="t" d="M473 -17T374 -17Q272 -17 221 35T169 181V422H58V531H169V646L327 665V531H498L482 422H327V181Q327 142 345 125T403 108Q453 108 496 132L548 31Q473 -17 374 -17Z" />
<glyph unicode="u" glyph-name="u" d="M228 168Q228 131 241 116T282 100Q306 100 331 115T372 158V531H530V0H392L385 62Q359 24 315 4T222 -17Q147 -17 109 26T70 148V531H228V168Z" />
<glyph unicode="v" glyph-name="v" d="M394 0H208L29 531H200L303 121L411 531H571L394 0Z" />
<glyph unicode="w" glyph-name="w" d="M347 0L301 357L253 0H82L3 531H148L183 99L238 464H372L421 99L457 531H597L521 0H347Z" />
<glyph unicode="x" glyph-name="x" d="M22 0L204 279L39 531H216L301 361L383 531H551L395 285L578 0H399L294 199L193 0H22Z" />
<glyph unicode="y" glyph-name="y" d="M395 0Q359 -107 288 -161T98 -223L80 -111Q156 -101 192 -77T251 0H196L28 531H195L298 101L410 531H572L395 0Z" />
<glyph unicode="z" glyph-name="z" d="M524 120L509 0H72V112L336 412H94V531H519V420L259 120H524Z" />
<glyph unicode="{" glyph-name="braceleft" d="M467 730Q417 730 394 717T374 667L389 519Q390 510 390 494Q390 428 350 395T234 350Q313 338 352 306T391 208Q391 201 389 181L374 33Q370 -2 394 -16T467 -30V-140Q339 -140 283 -105T226 12Q226 22 228 44L243
188L244 201Q244 247 208 266T105 286V414Q244 414 244 499L243 512L228 655Q226 679 226 689Q226 771 283 805T467 840V730Z" />
<glyph unicode="|" glyph-name="bar" d="M373 -105H226V810H373V-105Z" />
<glyph unicode="}" glyph-name="braceright" d="M261 840T317 805T374 688Q374 678 372 656L357 512L356 499Q356 414 495 414V286Q356 286 356 201L357 188L372 45Q374 21 374 11Q374 -71 317 -105T133 -140V-30Q183 -30 206 -17T226 33L211 181Q210 190 210
206Q210 272 250 305T367 350Q288 362 249 394T210 492Q210 510 211 519L226 667Q230 702 206 716T133 730V840Q261 840 317 805Z" />
<glyph unicode="~" glyph-name="asciitilde" d="M240 430T267 415T327 371Q350 350 366 340T401 330Q428 330 448 348T490 408L578 369Q543 292 501 251T397 210Q361 210 335 225T274 269Q249 290 233 300T199 310Q172 310 152 291T110 232L22 272Q58 346 99 388T203
430Q240 430 267 415Z" />
<glyph unicode="&#xa0;" glyph-name="uni00A0" />
<glyph unicode="&#xa1;" glyph-name="exclamdown" d="M338 512T364 485T390 420Q390 384 364 358T300 331Q263 331 237 357T210 420Q210 458 236 485T300 512Q338 512 364 485ZM385 -205H216L237 240H363L385 -205Z" />
<glyph unicode="&#xa2;" glyph-name="cent" d="M392 543Q464 531 521 483L453 388Q427 409 403 418T352 427Q298 427 271 388T244 262Q244 177 271 143T351 108Q377 108 399 117T450 147L521 46Q463 0 392 -12V-161H279V-9Q184 10 132 82T79 262Q79 371 132 446T280
541V692H392V543Z" />
<glyph unicode="&#xa3;" glyph-name="sterling" d="M420 711T470 686T558 609L461 539Q441 568 419 580T366 592Q281 592 281 498V402H464V319H281V243Q281 201 267 171T217 120H542L524 0H42V114Q79 126 96 142T119 182T125 248V319H52V402H125V502Q125 563 151
610T229 684T353 711Q420 711 470 686Z" />
<glyph unicode="&#xa4;" glyph-name="currency" d="M183 531Q231 560 301 560Q369 560 418 531L498 611L569 540L491 461Q523 408 523 342Q523 275 490 222L569 143L498 73L418 151Q369 123 301 123Q232 123 182 151L102 71L31 142L111 223Q80 273 80 342Q80 412
110 461L31 541L102 612L183 531ZM253 453T228 424T202 342Q202 288 227 259T301 230Q349 230 373 259T398 342Q398 395 374 424T301 453Q253 453 228 424Z" />
<glyph unicode="&#xa5;" glyph-name="yen" d="M415 352H514V270H380V202H514V120H380V0H222V120H90V202H222V270H90V352H186L8 693H176L302 408H306L429 693H592L415 352Z" />
<glyph unicode="&#xa6;" glyph-name="brokenbar" d="M373 446H226V810H373V446ZM373 -105H226V259H373V-105Z" />
<glyph unicode="&#xa7;" glyph-name="section" d="M372 711T421 696T511 655L456 563Q395 601 326 601Q291 601 273 589T254 554Q254 537 262 526T295 504T370 477Q447 453 484 418T522 321Q522 280 501 248T443 192Q499 148 499 78Q499 31 472 -6T394 -63T277
-84Q165 -84 84 -28L137 69Q205 26 269 26Q306 26 327 39T348 73Q348 90 340 101T307 124T229 152Q153 176 116 211T78 307Q78 347 100 379T160 434Q102 480 102 548Q102 595 129 632T205 690T319 711Q372 711 421 696ZM216 364T216 330Q216 308 227 295T266 269T357
234Q384 271 384 300Q384 321 373 334T333 360T242 394Q216 364 216 330Z" />
<glyph unicode="&#xa8;" glyph-name="dieresis" d="M150 637T126 660T102 718Q102 751 126 774T184 797Q219 797 243 774T267 718Q267 684 243 661T184 637Q150 637 126 660ZM382 637T358 660T333 718Q333 751 357 774T416 797Q450 797 474 774T498 718Q498 684
475 661T416 637Q382 637 358 660Z" />
<glyph unicode="&#xa9;" glyph-name="copyright" d="M391 759T456 715T556 595T591 424Q591 330 557 255T457 136T301 92Q209 92 143 135T43 254T9 424Q9 518 44 594T145 715T301 759Q391 759 456 715ZM197 689T145 615T92 424Q92 308 144 235T301 161Q404 161
456 234T509 424Q509 541 457 615T301 689Q197 689 145 615ZM347 622T374 611T426 574L377 514Q363 525 350 530T321 536Q290 536 272 510T254 425Q254 316 321 316Q355 316 386 343L431 277Q377 228 311 228Q231 228 186 279T141 425Q141 516 188 569T310 622Q347
622 374 611Z" />
<glyph unicode="&#xaa;" glyph-name="ordfeminine" d="M392 759T437 721T482 606V442Q482 421 489 410T512 394L482 306Q438 311 412 324T370 364Q345 335 311 320T236 304Q168 304 126 342T84 443Q84 512 141 551T301 590H354V602Q354 636 336 648T271 661Q250
661 219 655T154 638L121 728Q165 743 210 751T291 759Q392 759 437 721ZM322 507Q270 507 248 493T226 448Q226 397 276 397Q298 397 318 409T354 444V507H322ZM514 0H100V108H514V0Z" />
<glyph unicode="&#xab;" glyph-name="guillemotleft" d="M222 17L52 237V337L222 556L313 499L197 287L313 74L222 17ZM457 17L286 237V337L457 556L548 499L433 287L548 74L457 17Z" />
<glyph unicode="&#xac;" glyph-name="logicalnot" d="M517 104H387V258H83V379H517V104Z" />
<glyph unicode="&#xad;" glyph-name="uni00AD" d="M135 374H465V252H135V374Z" />
<glyph unicode="&#xae;" glyph-name="registered" d="M378 759T440 723T538 624T574 484Q574 408 539 346T441 248T301 212Q223 212 160 248T61 346T25 484Q25 561 61 624T160 723T301 759Q378 759 440 723ZM244 692T199 665T128 590T102 484Q102 426 128 380T199
306T301 279Q357 279 402 306T472 379T497 484Q497 542 472 589T402 664T301 692Q244 692 199 665ZM414 635T414 547Q414 519 399 499T356 469L433 351H350L288 454H265V351H193V635H280Q414 635 414 547ZM265 581V512H288Q340 512 340 549Q340 581 287 581H265Z"
/>
<glyph unicode="&#xaf;" glyph-name="overscore" d="M147 658V767H453V658H147Z" />
<glyph unicode="&#xb0;" glyph-name="degree" d="M294 759T335 739T402 680T428 590Q428 539 403 500T336 440T249 419Q205 419 164 440T97 500T71 590Q71 641 96 679T163 738T249 759Q294 759 335 739ZM217 668T199 647T180 590Q180 555 199 534T249 512Q281
512 300 533T319 590Q319 626 300 647T249 668Q217 668 199 647Z" />
<glyph unicode="&#xb1;" glyph-name="plusminus" d="M366 402H517V282H366V175H234V282H83V402H234V558H366V402ZM517 0H83V120H517V0Z" />
<glyph unicode="&#xb2;" glyph-name="uni00B2" d="M443 495T413 464T300 397H455L442 315H157V388Q229 428 264 451T312 490T324 524Q324 540 313 550T283 560Q264 560 249 552T216 524L145 576Q205 642 301 642Q368 642 405 612T443 538Q443 495 413 464Z" />
<glyph unicode="&#xb3;" glyph-name="uni00B3" d="M372 642T409 618T446 553Q446 524 429 508T377 483Q421 476 441 459T461 408Q461 362 417 336T296 309Q248 309 206 322T135 364L200 419Q223 402 244 395T292 388Q317 388 330 396T343 420Q343 448 293 448H241L253
513H293Q311 513 321 519T331 536Q331 563 292 563Q267 563 247 557T203 534L146 591Q210 642 306 642Q372 642 409 618Z" />
<glyph unicode="&#xb4;" glyph-name="acute" d="M438 716L201 622L158 703L376 835L438 716Z" />
<glyph unicode="&#xb5;" glyph-name="uni00B5" d="M524 188Q524 99 536 0L394 -14Q385 19 381 63Q358 26 329 6T266 -15Q238 -15 220 -5T180 33Q199 -7 207 -38T216 -115V-205L67 -221V531H224V229Q224 180 227 155T242 116T279 102Q304 102 326 117T366 159V531H524V188Z"
/>
<glyph unicode="&#xb6;" glyph-name="paragraph" d="M581 -210L449 -221V586H366V-210L234 -221V265Q128 274 74 329T19 478Q19 575 84 634T271 693H581V-210Z" />
<glyph unicode="&#xb7;" glyph-name="middot" d="M189 388T221 420T300 453Q346 453 378 421T411 342Q411 296 379 264T300 231Q254 231 222 263T189 342Q189 388 221 420Z" />
<glyph unicode="&#xb8;" glyph-name="cedilla" d="M320 -126T298 -119T228 -112L242 16H330V-48Q381 -54 407 -80T433 -147Q433 -198 392 -230T284 -262Q250 -262 220 -254T167 -232L203 -159Q237 -176 267 -176Q320 -176 320 -145Q320 -126 298 -119Z" />
<glyph unicode="&#xb9;" glyph-name="uni00B9" d="M310 526L231 485L179 557L327 636H422V315H310V526Z" />
<glyph unicode="&#xba;" glyph-name="ordmasculine" d="M368 759T418 730T495 649T522 532Q522 465 495 413T418 333T300 304Q197 304 138 366T78 532Q78 597 105 648T182 729T300 759Q368 759 418 730ZM217 661T217 532Q217 464 238 434T300 403Q341 403 362
433T383 532Q383 661 300 661Q217 661 217 532ZM507 0H93V108H507V0Z" />
<glyph unicode="&#xbb;" glyph-name="guillemotright" d="M52 499L143 556L313 337V237L143 17L52 74L167 287L52 499ZM286 499L377 556L548 337V237L377 17L286 74L402 287L286 499Z" />
<glyph unicode="&#xbc;" glyph-name="onequarter" d="M114 582L35 541L-17 613L131 692H226V371H114V582ZM14 251L549 507L590 431L56 175L14 251ZM574 0H470V56H289V122L410 330L505 298L406 131H472L487 210H574V131H618V56H574V0Z" />
<glyph unicode="&#xbd;" glyph-name="onehalf" d="M111 582L32 541L-20 613L128 692H223V371H111V582ZM10 251L545 507L586 431L52 175L10 251ZM608 180T578 149T465 82H620L607 0H322V73Q394 113 429 136T477 175T489 209Q489 225 478 235T448 245Q429 245 414
237T381 209L310 261Q370 327 466 327Q533 327 570 297T608 223Q608 180 578 149Z" />
<glyph unicode="&#xbe;" glyph-name="threequarters" d="M223 698T260 674T297 609Q297 580 280 564T228 539Q272 532 292 515T312 464Q312 418 268 392T147 365Q99 365 57 378T-14 420L51 475Q73 458 94 451T143 444Q168 444 181 452T194 476Q194 504 144 504H92L104
569H144Q162 569 172 575T182 592Q182 619 143 619Q119 619 99 613T54 590L-3 647Q61 698 157 698Q223 698 260 674ZM19 251L554 507L595 431L61 175L19 251ZM571 0H467V56H286V122L407 330L502 298L403 131H469L484 210H571V131H615V56H571V0Z" />
<glyph unicode="&#xbf;" glyph-name="questiondown" d="M354 512T381 485T408 420Q408 384 381 358T317 331Q280 331 254 357T227 420Q227 458 253 485T317 512Q354 512 381 485ZM390 207Q390 161 375 129T339 77T286 36Q254 13 240 -2T226 -40Q226 -67 248 -82T306
-97Q376 -97 431 -37L531 -114Q439 -222 290 -222Q217 -222 166 -199T88 -138T61 -54Q61 -14 75 15T109 62T164 104Q206 133 226 157T247 219V240H390V207Z" />
<glyph unicode="&#xc0;" glyph-name="Agrave" d="M197 150L161 0H-11L201 693H400L612 0H436L400 150H197ZM373 268L298 575L223 268H373ZM693 831L656 751L418 835L478 953L693 831Z" />
<glyph unicode="&#xc1;" glyph-name="Aacute" d="M197 150L161 0H-11L201 693H400L612 0H436L400 150H197ZM373 268L298 575L223 268H373ZM693 835L456 751L418 831L634 953L693 835Z" />
<glyph unicode="&#xc2;" glyph-name="Acircumflex" d="M197 150L161 0H-11L201 693H400L612 0H436L400 150H197ZM373 268L298 575L223 268H373ZM489 813L433 748L300 833L167 748L110 813L252 943H348L489 813Z" />
<glyph unicode="&#xc3;" glyph-name="Atilde" d="M197 150L161 0H-11L201 693H400L612 0H436L400 150H197ZM373 268L298 575L223 268H373ZM590 760T574 767T539 787Q514 805 498 805Q480 805 469 795T445 761L366 799Q387 852 419 884T495 917Q518 917 534 910T570
890Q583 881 592 877T611 872Q627 872 638 882T663 915L742 877Q721 824 688 792T612 760Q590 760 574 767Z" />
<glyph unicode="&#xc4;" glyph-name="Adieresis" d="M197 150L161 0H-11L201 693H400L612 0H436L400 150H197ZM373 268L298 575L223 268H373ZM406 762T382 785T358 842Q358 876 382 899T440 922Q475 922 498 899T522 842Q522 808 499 785T440 762Q406 762 382
785ZM638 762T614 785T589 842Q589 875 613 898T672 922Q707 922 730 899T754 842Q754 808 731 785T672 762Q638 762 614 785Z" />
<glyph unicode="&#xc5;" glyph-name="Aring" d="M197 150L161 0H-11L201 693H400L612 0H436L400 150H197ZM373 268L298 575L223 268H373ZM618 990T656 952T694 859Q694 804 656 765T555 726Q493 726 455 765T417 859Q417 914 455 952T555 990Q618 990 656 952ZM535
908T523 896T511 859Q511 834 523 821T555 808Q576 808 588 821T600 859Q600 883 588 895T555 908Q535 908 523 896Z" />
<glyph unicode="&#xc6;" glyph-name="AE" d="M173 153L145 0H-12L163 693H565L548 582H366L399 406H556V296H419L455 111H603V0H338L313 153H173ZM296 265L245 583L191 265H296Z" />
<glyph unicode="&#xc7;" glyph-name="Ccedilla" d="M433 -54T459 -80T485 -147Q485 -198 444 -230T336 -262Q302 -262 272 -254T219 -232L255 -159Q289 -176 319 -176Q372 -176 372 -145Q372 -126 350 -119T280 -112L291 -11Q173 9 104 102T34 348Q34 461 76 543T192
668T358 711Q430 711 482 692T580 635L500 538Q437 589 362 589Q291 589 248 529T204 348Q204 227 247 169T365 110Q411 110 444 126T515 172L589 77Q506 -8 382 -16V-48Q433 -54 459 -80Z" />
<glyph unicode="&#xc8;" glyph-name="Egrave" d="M257 409H497V295H257V118H546V0H93V693H546L529 576H257V409ZM457 831L420 751L182 835L242 953L457 831Z" />
<glyph unicode="&#xc9;" glyph-name="Eacute" d="M257 409H497V295H257V118H546V0H93V693H546L529 576H257V409ZM457 835L220 751L182 831L398 953L457 835Z" />
<glyph unicode="&#xca;" glyph-name="Ecircumflex" d="M257 409H497V295H257V118H546V0H93V693H546L529 576H257V409ZM509 813L453 748L320 833L187 748L130 813L272 943H368L509 813Z" />
<glyph unicode="&#xcb;" glyph-name="Edieresis" d="M257 409H497V295H257V118H546V0H93V693H546L529 576H257V409ZM170 762T146 785T122 842Q122 876 146 899T204 922Q239 922 262 899T286 842Q286 808 263 785T204 762Q170 762 146 785ZM402 762T378 785T353
842Q353 875 377 898T436 922Q471 922 494 899T518 842Q518 808 495 785T436 762Q402 762 378 785Z" />
<glyph unicode="&#xcc;" glyph-name="Igrave" d="M525 573H382V121H525V0H75V121H218V573H75V693H525V573ZM693 831L656 751L418 835L478 953L693 831Z" />
<glyph unicode="&#xcd;" glyph-name="Iacute" d="M525 573H382V121H525V0H75V121H218V573H75V693H525V573ZM693 835L456 751L418 831L634 953L693 835Z" />
<glyph unicode="&#xce;" glyph-name="Icircumflex" d="M525 573H382V121H525V0H75V121H218V573H75V693H525V573ZM489 813L433 748L300 833L167 748L110 813L252 943H348L489 813Z" />
<glyph unicode="&#xcf;" glyph-name="Idieresis" d="M525 573H382V121H525V0H75V121H218V573H75V693H525V573ZM406 762T382 785T358 842Q358 876 382 899T440 922Q475 922 498 899T522 842Q522 808 499 785T440 762Q406 762 382 785ZM638 762T614 785T589 842Q589
875 613 898T672 922Q707 922 730 899T754 842Q754 808 731 785T672 762Q638 762 614 785Z" />
<glyph unicode="&#xd0;" glyph-name="Eth" d="M397 693T492 620T587 350Q587 0 252 0H65V303H9V403H65V693H240Q397 693 492 620ZM338 119T377 170T417 350Q417 439 398 488T345 555T264 574H229V403H349V303H229V119H264Q338 119 377 170Z" />
<glyph unicode="&#xd1;" glyph-name="Ntilde" d="M167 557Q177 481 184 411T191 261V0H52V693H257L433 138Q409 292 409 428V693H548V0H349L167 557ZM344 760T328 767T293 787Q268 805 252 805Q234 805 223 795T199 761L120 799Q141 852 173 884T249 917Q272 917
288 910T324 890Q337 881 346 877T365 872Q381 872 392 882T417 915L496 877Q475 824 442 792T366 760Q344 760 328 767Z" />
<glyph unicode="&#xd2;" glyph-name="Ograve" d="M577 178T506 81T300 -17Q165 -17 94 79T23 347Q23 516 94 613T300 711Q435 711 506 615T577 347Q577 178 506 81ZM409 475T384 533T300 591Q242 591 217 533T191 347Q191 219 216 161T300 103Q359 103 384 161T409
347Q409 475 384 533ZM693 831L656 751L418 835L478 953L693 831Z" />
<glyph unicode="&#xd3;" glyph-name="Oacute" d="M577 178T506 81T300 -17Q165 -17 94 79T23 347Q23 516 94 613T300 711Q435 711 506 615T577 347Q577 178 506 81ZM409 475T384 533T300 591Q242 591 217 533T191 347Q191 219 216 161T300 103Q359 103 384 161T409
347Q409 475 384 533ZM693 835L456 751L418 831L634 953L693 835Z" />
<glyph unicode="&#xd4;" glyph-name="Ocircumflex" d="M577 178T506 81T300 -17Q165 -17 94 79T23 347Q23 516 94 613T300 711Q435 711 506 615T577 347Q577 178 506 81ZM409 475T384 533T300 591Q242 591 217 533T191 347Q191 219 216 161T300 103Q359 103 384
161T409 347Q409 475 384 533ZM489 813L433 748L300 833L167 748L110 813L252 943H348L489 813Z" />
<glyph unicode="&#xd5;" glyph-name="Otilde" d="M577 178T506 81T300 -17Q165 -17 94 79T23 347Q23 516 94 613T300 711Q435 711 506 615T577 347Q577 178 506 81ZM409 475T384 533T300 591Q242 591 217 533T191 347Q191 219 216 161T300 103Q359 103 384 161T409
347Q409 475 384 533ZM590 760T574 767T539 787Q514 805 498 805Q480 805 469 795T445 761L366 799Q387 852 419 884T495 917Q518 917 534 910T570 890Q583 881 592 877T611 872Q627 872 638 882T663 915L742 877Q721 824 688 792T612 760Q590 760 574 767Z" />
<glyph unicode="&#xd6;" glyph-name="Odieresis" d="M577 178T506 81T300 -17Q165 -17 94 79T23 347Q23 516 94 613T300 711Q435 711 506 615T577 347Q577 178 506 81ZM409 475T384 533T300 591Q242 591 217 533T191 347Q191 219 216 161T300 103Q359 103 384
161T409 347Q409 475 384 533ZM406 762T382 785T358 842Q358 876 382 899T440 922Q475 922 498 899T522 842Q522 808 499 785T440 762Q406 762 382 785ZM638 762T614 785T589 842Q589 875 613 898T672 922Q707 922 730 899T754 842Q754 808 731 785T672 762Q638
762 614 785Z" />
<glyph unicode="&#xd7;" glyph-name="multiply" d="M502 422L385 307L502 192L415 105L300 222L185 105L98 192L215 307L98 422L185 509L300 392L415 509L502 422Z" />
<glyph unicode="&#xd8;" glyph-name="Oslash" d="M515 616T546 536T577 347Q577 178 506 81T300 -17Q275 -17 248 -12L220 -109L109 -76L143 34Q85 79 54 159T23 347Q23 516 94 613T300 711Q324 711 351 706L380 803L491 770L457 660Q515 616 546 536ZM239 594T212
536T185 347Q185 224 208 166L332 590Q312 594 300 594Q239 594 212 536ZM362 100T388 158T415 347Q415 471 393 526L270 104Q282 100 300 100Q362 100 388 158Z" />
<glyph unicode="&#xd9;" glyph-name="Ugrave" d="M558 232Q558 160 529 104T442 15T300 -17Q174 -17 108 50T42 232V693H207V293Q207 226 214 186T241 126T300 105Q338 105 358 125T386 186T393 293V693H558V232ZM693 831L656 751L418 835L478 953L693 831Z" />
<glyph unicode="&#xda;" glyph-name="Uacute" d="M558 232Q558 160 529 104T442 15T300 -17Q174 -17 108 50T42 232V693H207V293Q207 226 214 186T241 126T300 105Q338 105 358 125T386 186T393 293V693H558V232ZM693 835L456 751L418 831L634 953L693 835Z" />
<glyph unicode="&#xdb;" glyph-name="Ucircumflex" d="M558 232Q558 160 529 104T442 15T300 -17Q174 -17 108 50T42 232V693H207V293Q207 226 214 186T241 126T300 105Q338 105 358 125T386 186T393 293V693H558V232ZM489 813L433 748L300 833L167 748L110 813L252
943H348L489 813Z" />
<glyph unicode="&#xdc;" glyph-name="Udieresis" d="M558 232Q558 160 529 104T442 15T300 -17Q174 -17 108 50T42 232V693H207V293Q207 226 214 186T241 126T300 105Q338 105 358 125T386 186T393 293V693H558V232ZM406 762T382 785T358 842Q358 876 382 899T440
922Q475 922 498 899T522 842Q522 808 499 785T440 762Q406 762 382 785ZM638 762T614 785T589 842Q589 875 613 898T672 922Q707 922 730 899T754 842Q754 808 731 785T672 762Q638 762 614 785Z" />
<glyph unicode="&#xdd;" glyph-name="Yacute" d="M382 0H218V259L-8 693H172L303 395L435 693H608L382 260V0ZM693 835L456 751L418 831L634 953L693 835Z" />
<glyph unicode="&#xde;" glyph-name="Thorn" d="M224 581H279Q422 581 499 524T576 354Q576 234 505 175T301 116H224V0H59V693H224V581ZM224 464V235H290Q347 235 376 262T406 353Q406 410 376 437T284 464H224Z" />
<glyph unicode="&#xdf;" glyph-name="germandbls" d="M354 759T399 739T469 683T493 603Q493 570 480 548T441 499Q422 479 413 465T403 432Q403 412 418 396T464 357Q499 331 521 309T560 252T577 168Q577 82 521 33T376 -17Q306 -17 249 14L299 120Q331 105
356 105Q385 105 400 121T415 167Q415 202 398 224T345 273Q318 295 303 310T276 348T265 404Q265 436 275 459T306 512Q324 539 332 556T340 596Q340 621 326 634T287 648Q251 648 235 621T218 538V0H60V531Q60 640 119 699T291 759Q354 759 399 739Z" />
<glyph unicode="&#xe0;" glyph-name="agrave" d="M517 124T525 110T552 89L519 -15Q471 -10 439 6T389 55Q359 20 313 2T215 -17Q133 -17 84 29T35 150Q35 236 103 283T294 331H365V350Q365 432 260 432Q233 432 193 425T114 404L78 509Q129 528 184 538T285 549Q517
549 517 361V153Q517 124 525 110ZM296 96T323 111T365 154V241H326Q198 241 198 161Q198 130 216 113T269 96Q296 96 323 111ZM412 716L473 835L691 702L648 622L412 716Z" />
<glyph unicode="&#xe1;" glyph-name="aacute" d="M517 124T525 110T552 89L519 -15Q471 -10 439 6T389 55Q359 20 313 2T215 -17Q133 -17 84 29T35 150Q35 236 103 283T294 331H365V350Q365 432 260 432Q233 432 193 425T114 404L78 509Q129 528 184 538T285 549Q517
549 517 361V153Q517 124 525 110ZM296 96T323 111T365 154V241H326Q198 241 198 161Q198 130 216 113T269 96Q296 96 323 111ZM687 716L450 622L407 703L625 835L687 716Z" />
<glyph unicode="&#xe2;" glyph-name="acircumflex" d="M517 124T525 110T552 89L519 -15Q471 -10 439 6T389 55Q359 20 313 2T215 -17Q133 -17 84 29T35 150Q35 236 103 283T294 331H365V350Q365 432 260 432Q233 432 193 425T114 404L78 509Q129 528 184 538T285
549Q517 549 517 361V153Q517 124 525 110ZM296 96T323 111T365 154V241H326Q198 241 198 161Q198 130 216 113T269 96Q296 96 323 111ZM359 676L501 815H597L738 676L682 611L549 705L416 611L359 676Z" />
<glyph unicode="&#xe3;" glyph-name="atilde" d="M517 124T525 110T552 89L519 -15Q471 -10 439 6T389 55Q359 20 313 2T215 -17Q133 -17 84 29T35 150Q35 236 103 283T294 331H365V350Q365 432 260 432Q233 432 193 425T114 404L78 509Q129 528 184 538T285 549Q517
549 517 361V153Q517 124 525 110ZM296 96T323 111T365 154V241H326Q198 241 198 161Q198 130 216 113T269 96Q296 96 323 111ZM583 635T567 642T532 662Q507 680 491 680Q473 680 462 670T438 636L359 674Q380 727 412 759T488 792Q511 792 527 785T563 765Q576
756 585 752T604 747Q620 747 631 757T656 790L735 752Q714 699 681 667T605 635Q583 635 567 642Z" />
<glyph unicode="&#xe4;" glyph-name="adieresis" d="M517 124T525 110T552 89L519 -15Q471 -10 439 6T389 55Q359 20 313 2T215 -17Q133 -17 84 29T35 150Q35 236 103 283T294 331H365V350Q365 432 260 432Q233 432 193 425T114 404L78 509Q129 528 184 538T285
549Q517 549 517 361V153Q517 124 525 110ZM296 96T323 111T365 154V241H326Q198 241 198 161Q198 130 216 113T269 96Q296 96 323 111ZM399 637T375 660T351 718Q351 751 375 774T433 797Q468 797 492 774T516 718Q516 684 492 661T433 637Q399 637 375 660ZM631
637T607 660T582 718Q582 751 606 774T665 797Q699 797 723 774T747 718Q747 684 724 661T665 637Q631 637 607 660Z" />
<glyph unicode="&#xe5;" glyph-name="aring" d="M517 124T525 110T552 89L519 -15Q471 -10 439 6T389 55Q359 20 313 2T215 -17Q133 -17 84 29T35 150Q35 236 103 283T294 331H365V350Q365 432 260 432Q233 432 193 425T114 404L78 509Q129 528 184 538T285 549Q517
549 517 361V153Q517 124 525 110ZM296 96T323 111T365 154V241H326Q198 241 198 161Q198 130 216 113T269 96Q296 96 323 111ZM611 865T649 827T687 734Q687 679 649 640T548 601Q507 601 476 619T427 667T410 734Q410 788 448 826T548 865Q611 865 649 827ZM528
783T516 771T504 734Q504 709 516 696T548 683Q569 683 581 696T593 734Q593 758 581 770T548 783Q528 783 516 771Z" />
<glyph unicode="&#xe6;" glyph-name="ae" d="M519 549T559 481T600 276Q600 250 597 226H356Q369 87 453 87Q476 87 496 95T540 119L600 40Q533 -17 444 -17Q338 -17 284 67Q254 22 223 3T143 -17Q74 -17 34 30T-6 152Q-6 238 44 282T196 327H237V350Q237 451
148 451Q124 451 105 446T55 426L19 513Q61 532 94 540T164 549Q216 549 249 531T302 478Q321 511 352 530T428 549Q519 549 559 481ZM391 450T376 419T356 312H481Q480 386 468 418T422 450Q391 450 376 419ZM216 242Q168 242 147 221T126 159Q126 124 138 105T172
86Q192 86 209 101T242 148Q237 198 237 242H216Z" />
<glyph unicode="&#xe7;" glyph-name="ccedilla" d="M420 -54T446 -80T472 -147Q472 -198 431 -230T323 -262Q289 -262 259 -254T206 -232L242 -159Q276 -176 306 -176Q359 -176 359 -145Q359 -126 337 -119T267 -112L278 -11Q180 8 125 80T69 262Q69 345 103 410T199
512T346 549Q405 549 452 533T540 482L472 387Q414 427 353 427Q234 427 234 262Q234 179 265 144T352 108Q382 108 410 119T470 153L540 53Q469 -8 369 -16V-48Q420 -54 446 -80Z" />
<glyph unicode="&#xe8;" glyph-name="egrave" d="M222 98T335 98Q403 98 471 142L534 56Q495 22 441 3T322 -17Q233 -17 171 18T78 117T46 265Q46 345 76 409T165 511T305 549Q381 549 437 517T523 423T554 276Q554 243 551 219H207Q222 98 335 98ZM262 443T236
412T205 315H400Q398 443 305 443Q262 443 236 412ZM170 716L231 835L449 702L406 622L170 716Z" />
<glyph unicode="&#xe9;" glyph-name="eacute" d="M222 98T335 98Q403 98 471 142L534 56Q495 22 441 3T322 -17Q233 -17 171 18T78 117T46 265Q46 345 76 409T165 511T305 549Q381 549 437 517T523 423T554 276Q554 243 551 219H207Q222 98 335 98ZM262 443T236
412T205 315H400Q398 443 305 443Q262 443 236 412ZM445 716L208 622L165 703L383 835L445 716Z" />
<glyph unicode="&#xea;" glyph-name="ecircumflex" d="M222 98T335 98Q403 98 471 142L534 56Q495 22 441 3T322 -17Q233 -17 171 18T78 117T46 265Q46 345 76 409T165 511T305 549Q381 549 437 517T523 423T554 276Q554 243 551 219H207Q222 98 335 98ZM262 443T236
412T205 315H400Q398 443 305 443Q262 443 236 412ZM117 676L259 815H355L496 676L440 611L307 705L174 611L117 676Z" />
<glyph unicode="&#xeb;" glyph-name="edieresis" d="M222 98T335 98Q403 98 471 142L534 56Q495 22 441 3T322 -17Q233 -17 171 18T78 117T46 265Q46 345 76 409T165 511T305 549Q381 549 437 517T523 423T554 276Q554 243 551 219H207Q222 98 335 98ZM262 443T236
412T205 315H400Q398 443 305 443Q262 443 236 412ZM157 637T133 660T109 718Q109 751 133 774T191 797Q226 797 250 774T274 718Q274 684 250 661T191 637Q157 637 133 660ZM389 637T365 660T340 718Q340 751 364 774T423 797Q457 797 481 774T505 718Q505 684
482 661T423 637Q389 637 365 660Z" />
<glyph unicode="&#xec;" glyph-name="igrave" d="M394 108H530V0H86V108H236V423H91V531H394V108ZM418 716L479 835L697 702L654 622L418 716Z" />
<glyph unicode="&#xed;" glyph-name="iacute" d="M394 108H530V0H86V108H236V423H91V531H394V108ZM693 716L456 622L413 703L631 835L693 716Z" />
<glyph unicode="&#xee;" glyph-name="icircumflex" d="M394 108H530V0H86V108H236V423H91V531H394V108ZM365 676L507 815H603L744 676L688 611L555 705L422 611L365 676Z" />
<glyph unicode="&#xef;" glyph-name="idieresis" d="M394 108H530V0H86V108H236V423H91V531H394V108ZM405 637T381 660T357 718Q357 751 381 774T439 797Q474 797 498 774T522 718Q522 684 498 661T439 637Q405 637 381 660ZM637 637T613 660T588 718Q588 751
612 774T671 797Q705 797 729 774T753 718Q753 684 730 661T671 637Q637 637 613 660Z" />
<glyph unicode="&#xf0;" glyph-name="eth" d="M184 631Q144 646 93 655L124 758Q209 746 270 721L343 797L424 727L371 673Q466 612 511 513T556 277Q556 194 526 127T436 22T294 -17Q222 -17 164 13T73 100T40 234Q40 306 69 362T148 450T255 482Q298 482 329
470T388 431Q355 529 282 582L226 525L126 571L184 631ZM396 305T395 328Q357 371 296 371Q251 371 226 337T201 236Q201 165 226 132T297 98Q348 98 372 136T396 256Q396 305 395 328Z" />
<glyph unicode="&#xf1;" glyph-name="ntilde" d="M70 531H208L219 470Q255 510 294 529T384 549Q453 549 491 507T530 390V0H372V344Q372 394 361 413T321 432Q297 432 275 417T228 371V0H70V531ZM335 635T319 642T284 662Q259 680 243 680Q225 680 214 670T190
636L111 674Q132 727 164 759T240 792Q263 792 279 785T315 765Q328 756 337 752T356 747Q372 747 383 757T408 790L487 752Q466 699 433 667T357 635Q335 635 319 642Z" />
<glyph unicode="&#xf2;" glyph-name="ograve" d="M421 549T489 473T558 267Q558 133 490 58T300 -17Q178 -17 110 57T42 266Q42 351 72 414T161 513T300 549Q421 549 489 473ZM251 432T228 393T205 266Q205 178 228 139T300 99Q349 99 372 139T395 267Q395 353
372 392T300 432Q251 432 228 393ZM163 716L224 835L442 702L399 622L163 716Z" />
<glyph unicode="&#xf3;" glyph-name="oacute" d="M421 549T489 473T558 267Q558 133 490 58T300 -17Q178 -17 110 57T42 266Q42 351 72 414T161 513T300 549Q421 549 489 473ZM251 432T228 393T205 266Q205 178 228 139T300 99Q349 99 372 139T395 267Q395 353
372 392T300 432Q251 432 228 393ZM438 716L201 622L158 703L376 835L438 716Z" />
<glyph unicode="&#xf4;" glyph-name="ocircumflex" d="M421 549T489 473T558 267Q558 133 490 58T300 -17Q178 -17 110 57T42 266Q42 351 72 414T161 513T300 549Q421 549 489 473ZM251 432T228 393T205 266Q205 178 228 139T300 99Q349 99 372 139T395 267Q395
353 372 392T300 432Q251 432 228 393ZM110 676L252 815H348L489 676L433 611L300 705L167 611L110 676Z" />
<glyph unicode="&#xf5;" glyph-name="otilde" d="M421 549T489 473T558 267Q558 133 490 58T300 -17Q178 -17 110 57T42 266Q42 351 72 414T161 513T300 549Q421 549 489 473ZM251 432T228 393T205 266Q205 178 228 139T300 99Q349 99 372 139T395 267Q395 353
372 392T300 432Q251 432 228 393ZM334 635T318 642T283 662Q258 680 242 680Q224 680 213 670T189 636L110 674Q131 727 163 759T239 792Q262 792 278 785T314 765Q327 756 336 752T355 747Q371 747 382 757T407 790L486 752Q465 699 432 667T356 635Q334 635
318 642Z" />
<glyph unicode="&#xf6;" glyph-name="odieresis" d="M421 549T489 473T558 267Q558 133 490 58T300 -17Q178 -17 110 57T42 266Q42 351 72 414T161 513T300 549Q421 549 489 473ZM251 432T228 393T205 266Q205 178 228 139T300 99Q349 99 372 139T395 267Q395
353 372 392T300 432Q251 432 228 393ZM150 637T126 660T102 718Q102 751 126 774T184 797Q219 797 243 774T267 718Q267 684 243 661T184 637Q150 637 126 660ZM382 637T358 660T333 718Q333 751 357 774T416 797Q450 797 474 774T498 718Q498 684 475 661T416
637Q382 637 358 660Z" />
<glyph unicode="&#xf7;" glyph-name="divide" d="M338 623T364 597T390 532Q390 496 364 470T300 443Q262 443 236 469T210 532Q210 570 236 596T300 623Q338 623 364 597ZM517 258H83V379H517V258ZM338 195T364 169T390 104Q390 67 364 41T300 14Q262 14 236
40T210 104Q210 142 236 168T300 195Q338 195 364 169Z" />
<glyph unicode="&#xf8;" glyph-name="oslash" d="M500 475T529 413T558 267Q558 133 490 58T300 -17L269 -16L232 -137L116 -103L156 19Q101 53 72 116T42 266Q42 351 72 414T161 513T300 549Q311 549 331 547L370 663L484 629L445 510Q500 475 529 413ZM249 435T226
395T202 266Q202 172 220 135L316 434Q311 435 300 435Q249 435 226 395ZM351 96T374 136T398 267Q398 359 381 393L286 96H300Q351 96 374 136Z" />
<glyph unicode="&#xf9;" glyph-name="ugrave" d="M228 168Q228 131 241 116T282 100Q306 100 331 115T372 158V531H530V0H392L385 62Q359 24 315 4T222 -17Q147 -17 109 26T70 148V531H228V168ZM163 716L224 835L442 702L399 622L163 716Z" />
<glyph unicode="&#xfa;" glyph-name="uacute" d="M228 168Q228 131 241 116T282 100Q306 100 331 115T372 158V531H530V0H392L385 62Q359 24 315 4T222 -17Q147 -17 109 26T70 148V531H228V168ZM438 716L201 622L158 703L376 835L438 716Z" />
<glyph unicode="&#xfb;" glyph-name="ucircumflex" d="M228 168Q228 131 241 116T282 100Q306 100 331 115T372 158V531H530V0H392L385 62Q359 24 315 4T222 -17Q147 -17 109 26T70 148V531H228V168ZM110 676L252 815H348L489 676L433 611L300 705L167 611L110 676Z" />
<glyph unicode="&#xfc;" glyph-name="udieresis" d="M228 168Q228 131 241 116T282 100Q306 100 331 115T372 158V531H530V0H392L385 62Q359 24 315 4T222 -17Q147 -17 109 26T70 148V531H228V168ZM150 637T126 660T102 718Q102 751 126 774T184 797Q219 797 243
774T267 718Q267 684 243 661T184 637Q150 637 126 660ZM382 637T358 660T333 718Q333 751 357 774T416 797Q450 797 474 774T498 718Q498 684 475 661T416 637Q382 637 358 660Z" />
<glyph unicode="&#xfd;" glyph-name="yacute" d="M395 0Q359 -107 288 -161T98 -223L80 -111Q156 -101 192 -77T251 0H196L28 531H195L298 101L410 531H572L395 0ZM438 716L201 622L158 703L376 835L438 716Z" />
<glyph unicode="&#xfe;" glyph-name="thorn" d="M228 478Q252 512 287 530T364 549Q464 549 511 476T558 267Q558 185 534 121T463 20T354 -17Q277 -17 228 38V-205L70 -222V742L228 759V478ZM265 432T228 370V146Q245 122 263 111T306 99Q350 99 372 138T395
265Q395 359 375 395T315 432Q265 432 228 370Z" />
<glyph unicode="&#xff;" glyph-name="ydieresis" d="M395 0Q359 -107 288 -161T98 -223L80 -111Q156 -101 192 -77T251 0H196L28 531H195L298 101L410 531H572L395 0ZM150 637T126 660T102 718Q102 751 126 774T184 797Q219 797 243 774T267 718Q267 684 243 661T184
637Q150 637 126 660ZM382 637T358 660T333 718Q333 751 357 774T416 797Q450 797 474 774T498 718Q498 684 475 661T416 637Q382 637 358 660Z" />
<glyph unicode="&#x2013;" glyph-name="endash" d="M27 374H573V252H27V374Z" />
<glyph unicode="&#x2014;" glyph-name="emdash" d="M0 374H600V252H0V374Z" />
<glyph unicode="&#x2018;" glyph-name="quoteleft" d="M391 498T364 472T297 446Q257 446 230 472T203 536Q203 558 210 581T235 640L306 789H396L353 612Q391 585 391 536Q391 498 364 472Z" />
<glyph unicode="&#x2019;" glyph-name="quoteright" d="M208 736T235 762T302 789Q342 789 369 763T396 698Q396 677 389 654T364 595L293 446H203L246 623Q208 651 208 698Q208 736 235 762Z" />
<glyph unicode="&#x201a;" glyph-name="quotesinglbase" d="M209 109T236 135T303 161Q343 161 370 135T397 71Q397 49 390 26T365 -33L293 -182H203L247 -5Q209 22 209 71Q209 109 236 135Z" />
<glyph unicode="&#x201c;" glyph-name="quotedblleft" d="M275 498T248 472T180 446Q140 446 114 472T88 536Q88 559 94 582T118 640L190 789H279L236 612Q275 584 275 536Q275 498 248 472ZM508 499T481 473T414 446Q374 446 347 472T320 536Q320 558 327 581T352
640L423 789H512L469 612Q508 583 508 536Q508 499 481 473Z" />
<glyph unicode="&#x201d;" glyph-name="quotedblright" d="M92 745T119 771T186 797Q226 797 253 771T280 707Q280 686 273 663T248 602L177 455H88L130 632Q92 660 92 707Q92 745 119 771ZM324 745T351 771T419 797Q459 797 485 771T512 707Q512 685 506 662T481
602L409 455H320L364 632Q324 660 324 707Q324 745 351 771Z" />
<glyph unicode="&#x201e;" glyph-name="quotedblbase" d="M92 108T119 134T186 161Q226 161 253 135T280 71Q280 48 273 25T248 -33L177 -182H88L132 -5Q92 23 92 71Q92 108 119 134ZM324 109T351 135T419 161Q459 161 485 135T512 71Q512 48 506 25T481 -33L409
-182H320L364 -5Q324 23 324 71Q324 109 351 135Z" />
<glyph unicode="&#x2022;" glyph-name="bullet" d="M239 200T199 240T158 342Q158 403 198 443T300 483Q362 483 402 443T442 341Q442 280 402 240T300 200Q239 200 199 240Z" />
<glyph unicode="&#x2039;" glyph-name="guilsinglleft" d="M345 17L157 237V337L345 556L443 492L315 287L443 81L345 17Z" />
<glyph unicode="&#x203a;" glyph-name="guilsinglright" d="M157 492L254 556L443 337V237L254 17L157 81L284 287L157 492Z" />
</font>
</defs>
</svg>
